Bedlam S01 720p TVShows Torrent

Бедлам / Bedlam

Страна: Великобритания

NOTE: Our website contains popup ads. You may need to click the DOWNLOAD LINK twice or three times before you can download


Производство: Sky Living, Red Production Company

Год выпуска: 2011

Жанр: ужасы, драма, детектив

Продолжительность: 6х ~00:44:00

Режиссеры: Олрик Райли, Джон Стриклэнд, Фрайзер МакДональд

В ролях: Хьюго Спир, Шарлотта Солт, Лэйси Тернер, Тео Джеймс, Джек Рот, Уилл Янг, Эшли Мадекве

Описание: Джэд Харпер может видеть призраков. И не только самих призраков, но и момент их смерти. И когда призраки начинают «атаковать» новый комплекс апартаментов «Бедлам» (ранее представлявший собой самый известный госпиталь для душевнобольных в Великобритании), это привлекает внимание Джэда…

Перевод: Профессиональный (многоголосый, закадровый) | TVShows

Субтитры: английские (full)

Качество: WEB-DL 720p

Формат: МКV

Видео кодек: AVC

Аудио кодек: АС3 | E-AC3

Видео: 1280×720 (16:9), 25.000 fps, MPEG-4 AVC ~4 400 kbps avg

Аудио №1: 48.0 kHz, AC3 Dolby Digital, 2/0 (L,R) ch, ~192 kbps | RUS / MVO

Аудио №2: 48.0 kHz, Enhanced Audio Coding 3, 2/0 (L,R) ch, ~224 kbps | ENG

Формат субтитров: UTF-8 Plain Text

Дата премьеры (мир): 7 февраля 2011

Media InfoGeneral

Уникальный идентификатор : 255517553150371080725809011486224403656 (0xC03AE40472EEC1C381EA437E32D1CCC8)

Полное имя : Bedlam.S01E01.720p.TVShows.mkv

Формат : Matroska

Версия формата : Version 4

Размер файла : 1,46 Гбайт

Продолжительность : 43 м. 22 с.

Общий поток : 4819 Кбит/сек

Дата кодирования : UTC 2019-10-07 14:23:32

Программа кодирования : mkvmerge v33.1.0 (‘Primrose’) 64-bit

Библиотека кодирования : libebml v1.3.7 + libmatroska v1.5.0

Видео

Идентификатор : 1

Формат : AVC

Формат/Информация : Advanced Video Codec

Профиль формата : [email protected]

Настройки формата : CABAC / 2 Ref Frames

Параметр CABAC формата : Да

Параметр RefFrames формата : 2 кадра

Идентификатор кодека : V_MPEG4/ISO/AVC

Продолжительность : 43 м. 22 с.

Битрейт : 4400 Кбит/сек

Ширина : 1280 пикселей

Высота : 720 пикселей

Соотношение сторон : 16:9

Режим частоты кадров : Постоянный

Частота кадров : 25,000 кадров/сек

Цветовое пространство : YUV

Субдискретизация насыщенности : 4:2:0

Битовая глубина : 8 бит

Тип развёртки : Прогрессивная

Бит/(Пиксели*Кадры) : 0.191

Размер потока : 1,33 Гбайт (91%)

Default : Да

Forced : Нет

Аудио #1

Идентификатор : 2

Формат : AC-3

Формат/Информация : Audio Coding 3

Коммерческое название : Dolby Digital

Идентификатор кодека : A_AC3

Продолжительность : 43 м. 22 с.

Вид битрейта : Постоянный

Битрейт : 192 Кбит/сек

Каналы : 2 канала

ChannelLayout : L R

Частота : 48,0 КГц

Частота кадров : 31,250 кадров/сек (1536 SPF)

Битовая глубина : 16 бит

Метод сжатия : С потерями

Размер потока : 59,6 Мбайт (4%)

Заголовок : TVShows

Язык : Russian

Default : Да

Forced : Да

Аудио #2

Идентификатор : 3

Формат : E-AC-3

Формат/Информация : Enhanced AC-3

Коммерческое название : Dolby Digital Plus

Идентификатор кодека : A_EAC3

Продолжительность : 43 м. 22 с.

Вид битрейта : Постоянный

Битрейт : 224 Кбит/сек

Каналы : 2 канала

ChannelLayout : L R

Частота : 48,0 КГц

Частота кадров : 31,250 кадров/сек (1536 SPF)

Метод сжатия : С потерями

Размер потока : 69,5 Мбайт (5%)

Заголовок : Original

Язык : English

Default : Нет

Forced : Нет

Текст

Идентификатор : 4

Формат : UTF-8

Идентификатор кодека : S_TEXT/UTF8

Идентификатор кодека/Информация : UTF-8 Plain Text

Продолжительность : 42 м. 10 с.

Битрейт : 50 бит/сек

ElementCount : 486

Размер потока : 15,7 Кбайт (0%)

Заголовок : English

Язык : English

Default : Нет

Forced : НетСкриншоты

Author:

Movie Source: https://www.torrentfunk2.com/torrent/24065188/bedlam-s01-720p-tvshows.html

All Subtitles can be download on Subscene.com or addic7ed.pro

PUBLISH MOVIE ON PAIDNAIJA [FREE!]

Can't Download? REPORT BROKEN LINKS

HOW TO DOWNLOAD ON PAIDNAIJA

Recent Movie Updates [Nollywood, IMDB, NetFlix, Amazon]

Post views in last 5 minutes: 0 views

DOWNLOAD PAIDNAIJA MOBILE APP (APK)