Beers from Kamchatka 2019 1080p WEB DL RUS Team Torrent

Информация о фильме

Название: Медведи Камчатки. Начало жизни

Жанр: Документальный

Год выпуска: 2018

Режиссер: Владислав Гришин, Ирина Журавлева

В ролях: Анатолий Белый

О фильме: Документальный фильм рассказывает о первом годе жизни бурых медведей по сценарию, написанному самой природой. На протяжении семи месяцев съёмочная группа наблюдала за несколькими медвежьими семьями на территории Южно-Камчатского федерального заказника им. Т. И. Шпиленка, чтобы запечатлеть тайны взросления одного из самых крупных хищников России. Это особенная картина, которая переносит зрителя в мир вулканов, рек и диких животных – мир, где человеку отведена роль наблюдателя. Цель создателей – погрузить зрителей в атмосферу природного равновесия, которая все ещё сохраняется на заповедных территориях.

Выпущено: Россия, LESFILM

Продолжительность: 00:52:35

Перевод: Не требуется | iTunes

Файл

Формат: MKV

Качество: WEB-DL 1080p

Видео: 1920×1080 (16:9), 25.000 fps, 5109 Kbps

Аудио: Russian: 48.0 KHz, AC3, 6 ch, 384 Kbps

Субтитры: Нет

Инфо-ФайлФормат                                   : Matroska

Версия формата                           : Version 4

Размер файла                             : 2,02 Гбайт

Продолжительность                        : 52 м. 35 с.

Общий поток                              : 5495 Кбит/сек

Дата кодирования                         : UTC 2019-09-30 18:19:32

Программа кодирования                    : mkvmerge v8.5.1 (‘Where you lead I will follow’) 64bit

Библиотека кодирования                   : libebml v1.3.3 + libmatroska v1.4.4

Видео

Идентификатор                            : 1

Формат                                   : AVC

Формат/Информация                        : Advanced Video Codec

Профиль формата                          : [email protected]

Настройки формата                        : CABAC / 4 Ref Frames

Параметр CABAC формата                   : Да

Параметр RefFrames формата               : 4 кадра

Параметр GOP формата                     : N=1

Идентификатор кодека                     : V_MPEG4/ISO/AVC

Продолжительность                        : 52 м. 34 с.

Битрейт                                  : 5109 Кбит/сек

Ширина                                   : 1920 пикселей

Высота                                   : 1080 пикселей

Соотношение сторон                       : 16:9

Режим частоты кадров                     : Постоянный

Частота кадров                           : 25,000 кадров/сек

Цветовое пространство                    : YUV

Субдискретизация насыщенности            : 4:2:0

Битовая глубина                          : 8 бит

Тип развёртки                            : Прогрессивная

Бит/(Пиксели*Кадры)                      : 0.099

Размер потока                            : 1,88 Гбайт (93%)

Язык                                     : Russian

Default                                  : Да

Forced                                   : Нет

Цветовой диапазон                        : Limited

Основные цвета                           : BT.709

Характеристики трансфера                 : BT.709

Коэффициенты матрицы                     : BT.709

Аудио

Идентификатор                            : 2

Формат                                   : AC-3

Формат/Информация                        : Audio Coding 3

Коммерческое название                    : Dolby Digital

Идентификатор кодека                     : A_AC3

Продолжительность                        : 52 м. 35 с.

Вид битрейта                             : Постоянный

Битрейт                                  : 384 Кбит/сек

Каналы                                   : 6 каналов

ChannelLayout                            : L R C LFE Ls Rs

Частота                                  : 48,0 КГц

Частота кадров                           : 31,250 кадров/сек (1536 SPF)

Метод сжатия                             : С потерями

Размер потока                            : 144 Мбайт (7%)

Заголовок                                : Russian from iTunes Russia DD 5.1

Язык                                     : Russian

Default                                  : Да

Forced                                   : Нет

Меню

00:00:00.000                             : en:Глава 1

00:08:15.160                             : en:Глава 2

00:16:17.880                             : en:Глава 3

00:24:26.480                             : en:Глава 4

00:32:40.720                             : en:Глава 5

00:41:43.840                             : en:Глава 6

Author:

Movie Source: https://www.torrentfunk2.com/torrent/24112701/beers-from-kamchatka-2019-1080p-web-dl-rus-teamhd.html

All Subtitles can be downloaded on Subscene.com or addic7ed.pro or ytsubtitles.com or yifysubtitles.org

Can't Download? REPORT BROKEN LINKS

HOW TO DOWNLOAD ON PAIDNAIJA

Recent Movie Updates [Nollywood, IMDB, NetFlix, Amazon]

Post views in last 5 minutes: 1 view

DOWNLOAD PAIDNAIJA MOBILE APP (APK)