Bob 039 s Burgers S10E02 Boys Just Wanna Have Fungus 1080p HULU Webrip x265 Torrent

http://www.torrentfunk2.com/

NOTE: Our website contains popup ads. You may need to click the DOWNLOAD LINK twice or three times before you can download


Bob’s Burgers (2011) IMDB

http://www.torrentfunk2.com/

http://www.torrentfunk2.com/

http://www.torrentfunk2.com/

http://www.torrentfunk2.com/

Media Information

Unique ID                                : 246075298909206278574611065293969937574 (0xB92060F0CCFEA1E1568503CE9F9DD4A6)

Complete name                            : Bob’s Burgers S10E02 Boys Just Wanna Have Fungus (1080p HULU Webrip x265 10bit EAC3 5.1 – Goki).mkv

Format                                   : Matroska

Format version                           : Version 4

File size                                : 184 MiB

Duration                                 : 21 min 28 s

Overall bit rate                         : 1 198 kb/s

Movie name                               : Bob’s Burgers S10E02 Boys Just Wanna Have Fungus (1080p HULU Webrip x265 10bit EAC3 5.1 – Goki).mkv

Encoded date                             : UTC 2019-10-08 23:43:25

Writing application                      : mkvmerge v28.2.0 (‘The Awakening’) 64-bit

Writing library                          : libebml v1.3.6 + libmatroska v1.4.9

Video

ID                                       : 1

Format                                   : HEVC

Format/Info                              : High Efficiency Video Coding

Format profile                           : Main [email protected]@Main

Codec ID                                 : V_MPEGH/ISO/HEVC

Duration                                 : 21 min 27 s

Bit rate                                 : 940 kb/s

Width                                    : 1 920 pixels

Height                                   : 1 080 pixels

Display aspect ratio                     : 16:9

Frame rate mode                          : Constant

Frame rate                               : 23.976 (24000/1001) FPS

Color space                              : YUV

Chroma subsampling                       : 4:2:0

Bit depth                                : 10 bits

Bits/(Pixel*Frame)                       : 0.019

Stream size                              : 144 MiB (78%)

Writing library                          : x265 2.9+8-27d8424c799d:[Windows][GCC 8.2.0][64 bit] 10bit

Encoding settings                        : cpuid=1049071 / frame-threads=3 / numa-pools=8 / wpp / no-pmode / no-pme / no-psnr / no-ssim / log-level=2 / input-csp=1 / input-res=1920×1080 / interlace=0 / total-frames=0 / level-idc=0 / high-tier=1 / uhd-bd=0 / ref=4 / no-allow-non-conformance / no-repeat-headers / annexb / no-aud / no-hrd / info / hash=0 / no-temporal-layers / open-gop / min-keyint=23 / keyint=250 / gop-lookahead=0 / bframes=8 / b-adapt=2 / b-pyramid / bframe-bias=0 / rc-lookahead=100 / lookahead-slices=4 / scenecut=40 / radl=0 / no-intra-refresh / ctu=64 / min-cu-size=8 / no-rect / no-amp / max-tu-size=32 / tu-inter-depth=1 / tu-intra-depth=1 / limit-tu=0 / rdoq-level=2 / dynamic-rd=0.00 / no-ssim-rd / signhide / no-tskip / nr-intra=0 / nr-inter=0 / no-constrained-intra / no-strong-intra-smoothing / max-merge=3 / limit-refs=3 / limit-modes / me=3 / subme=5 / merange=57 / temporal-mvp / weightp / no-weightb / no-analyze-src-pics / deblock=0:0 / sao / no-sao-non-deblock / rd=4 / no-early-skip / rskip / no-fast-intra / no-tskip-fast / no-cu-lossless / no-b-intra / no-splitrd-skip / rdpenalty=0 / psy-rd=1.30 / psy-rdoq=2.00 / no-rd-refine / no-lossless / cbqpoffs=0 / crqpoffs=0 / rc=crf / crf=22.0 / qcomp=0.60 / qpstep=4 / stats-write=0 / stats-read=0 / ipratio=1.40 / pbratio=1.30 / aq-mode=2 / aq-strength=1.10 / cutree / zone-count=0 / no-strict-cbr / qg-size=32 / no-rc-grain / qpmax=69 / qpmin=0 / no-const-vbv / sar=1 / overscan=0 / videoformat=5 / range=0 / colorprim=2 / transfer=2 / colormatrix=2 / chromaloc=0 / display-window=0 / max-cll=0,0 / min-luma=0 / max-luma=1023 / log2-max-poc-lsb=8 / vui-timing-info / vui-hrd-info / slices=1 / no-opt-qp-pps / no-opt-ref-list-length-pps / no-multi-pass-opt-rps / scenecut-bias=0.05 / no-opt-cu-delta-qp / no-aq-motion / no-hdr / no-hdr-opt / no-dhdr10-opt / no-idr-recovery-sei / analysis-reuse-level=5 / scale-factor=0 / refine-intra=0 / refine-inter=0 / refine-mv=0 / no-limit-sao / ctu-info=0 / no-lowpass-dct / refine-mv-type=0 / copy-pic=1 / max-ausize-factor=1.0 / no-dynamic-refine / no-single-sei

Default                                  : Yes

Forced                                   : No

Audio

ID                                       : 2

Format                                   : E-AC-3

Format/Info                              : Enhanced AC-3

Commercial name                          : Dolby Digital Plus

Codec ID                                 : A_EAC3

Duration                                 : 21 min 28 s

Bit rate mode                            : Constant

Bit rate                                 : 256 kb/s

Channel(s)                               : 6 channels

Channel layout                           : L R C LFE Ls Rs

Sampling rate                            : 48.0 kHz

Frame rate                               : 31.250 FPS (1536 SPF)

Compression mode                         : Lossy

Stream size                              : 39.3 MiB (21%)

Language                                 : English

Service kind                             : Complete Main

Default                                  : Yes

Forced                                   : No

Text

ID                                       : 3

Format                                   : UTF-8

Codec ID                                 : S_TEXT/UTF8

Codec ID/Info                            : UTF-8 Plain Text

Duration                                 : 21 min 20 s

Bit rate                                 : 147 b/s

Count of elements                        : 585

Stream size                              : 23.1 KiB (0%)

Language                                 : English

Default                                  : No

Forced                                   : No

Source

1080p HULU WEB-DL CtrlHD

………………………………………………………………………………………………………………………..

Author:

Movie Source: https://www.torrentfunk2.com/torrent/24079141/bob%27s-burgers-s10e02-boys-just-wanna-have-fungus-1080p-hulu-webrip-x265-10bit-e-5-1-goki.html

All Subtitles can be download on Subscene.com or addic7ed.pro

PUBLISH MOVIE ON PAIDNAIJA [FREE!]

Can't Download? REPORT BROKEN LINKS

HOW TO DOWNLOAD ON PAIDNAIJA

Recent Movie Updates [Nollywood, IMDB, NetFlix, Amazon]

Post views in last 5 minutes: 0 views

DOWNLOAD PAIDNAIJA MOBILE APP (APK)