Shtorm 2019 WEB DL 1080p Getty Torrent

Название: Шторм

Год выхода: 2019

NOTE: Our website contains popup ads. You may need to click the DOWNLOAD LINK twice or three times before you can download


Жанр: драма, детектив

Режиссеры: Борис Хлебников

В ролях: Александр Робак, Максим Лагашкин, Анна Михалкова, Анна Котова, Геннадий Смирнов, Михаил Брашинский, Илья Борисов, Дмитрий Лысенков, Александр Мосин, Дарья Жовнер, Сергей Уманов, Валерий Дьяченко, Мария Антонова (II), Егор Пчёлкин др.

О фильме: В центре сюжета – двое друзей, Юрий Осокин и Сергей Градов. Первый работает в убойном отделе полиции, второй – в отделе по борьбе с коррупцией. Чтобы спасти жену от смертельной болезни и найти деньги на дорогостоящую операцию, Градов идет на должностные преступления и пытается скрыть улики. Изворотливый ум и талант выстраивать сложные многоходовые схемы делают его практически неуловимым. Расследующий череду преступлений Осокин начинает догадываться, что к делу причастен Градов, хотя достаточных доказательств у него пока нет. Для Юрия становится делом чести изобличить своего друга.

Страна: Россия

Студия: Start Studio, Марс Медиа

Продолжительность: ~ 00:50:00

Файл

Формат: MKV

Качество: WEBRip (1080p)

Видео: 1920×1080 (16:9), 23,976 fps, AVC (х264), [email protected], ~6455 kbps avg, 0.130 bit/pixel

Аудио RUS: 48 kHz, AC3 Dolby Digital, 2/0 (L,R) ch, ~192 kbps

• Версия 18+

• Возможно наличие “всплывающих” надписей.

MediaInfoОбщее

Уникальный идентификатор : 203035796307927922323068404309640433489 (0x98BF45A1157792D697B1969CA7A54F51)

Полное имя : Shtorm.e01.2019.WEB-DL.(1080p).Getty.mkv

Формат : Matroska

Версия формата : Version 4

Размер файла : 2,84 Гбайт

Продолжительность : 1 ч. 1 м.

Общий поток : 6649 Кбит/сек

Название фильма : Shtorm.e01.2019.WEB-DL.(1080p).Getty

Дата кодирования : UTC 2019-09-04 20:51:22

Программа кодирования : mkvmerge v7.8.0 (‘River Man’) 32bit built on Mar 27 2015 16:18:02

Библиотека кодирования : libebml v1.3.1 + libmatroska v1.4.2

Видео

Идентификатор : 1

Формат : AVC

Формат/Информация : Advanced Video Codec

Профиль формата : [email protected]

Настройки формата : CABAC / 4 Ref Frames

Параметр CABAC формата : Да

Параметр RefFrames формата : 4 кадра

Идентификатор кодека : V_MPEG4/ISO/AVC

Продолжительность : 1 ч. 1 м.

Битрейт : 6455 Кбит/сек

Ширина : 1920 пикселей

Высота : 1080 пикселей

Соотношение сторон : 16:9

Режим частоты кадров : Постоянный

Частота кадров : 23,976 (24000/1001) кадра/сек

Цветовое пространство : YUV

Субдискретизация насыщенности : 4:2:0

Битовая глубина : 8 бит

Тип развёртки : Прогрессивная

Бит/(Пиксели*Кадры) : 0.130

Размер потока : 2,76 Гбайт (97%)

Default : Да

Forced : Нет

Аудио

Идентификатор : 2

Формат : AC-3

Формат/Информация : Audio Coding 3

Коммерческое название : Dolby Digital

Идентификатор кодека : A_AC3

Продолжительность : 1 ч. 1 м.

Вид битрейта : Постоянный

Битрейт : 192 Кбит/сек

Каналы : 2 канала

ChannelLayout : L R

Частота : 48,0 КГц

Частота кадров : 31,250 кадров/сек (1536 SPF)

Битовая глубина : 16 бит

Метод сжатия : С потерями

Размер потока : 84,1 Мбайт (3%)

Default : Да

Forced : Нет

Внимание! Раздача ведётся путём добавления новых серийВнимание! Раздача ведётся путём добавления новых серий; при каждом добавлении создаётся новый торрент. Чтобы начать докачку новой серии, пользователям необходимо сделать следующее:

(1) остановить скачивание,

(2) удалить старый торрент у себя из клиента (старые серии удалять не надо),

(3) скачать новый торрент и запустить его у себя в клиенте вместо старого, при этом указать клиенту путь в старую папку куда и должно происходить скачивание новых серий.

Ваш клиент при этом должен произвести хеширование (проверку) старой папки (если не производит сам – помогите ему сделать это), и будет докачивать только те серии которых у вас ещё нет. Старые серии при этом не удаляются, а продолжают раздаваться!

Eсли вы уже удалили старые серии, то предотвратить повторную закачку старых серий можно, отжав галочку в соответсвующих местах при запуске нового торрента. По возможности, желательно не удалять старые серии как можно дольше чтобы релизёр не столько продолжал раздавать старые серии, а смог сконцентрироваться на новых.Скриншоты

Author:

Movie Source: https://www.torrentfunk2.com/torrent/24121475/shtorm-2019-web-dl-1080p-getty.html

All Subtitles can be download on Subscene.com or addic7ed.pro

PUBLISH MOVIE ON PAIDNAIJA [FREE!]

Can't Download? REPORT BROKEN LINKS

HOW TO DOWNLOAD ON PAIDNAIJA

Recent Movie Updates [Nollywood, IMDB, NetFlix, Amazon]

Post views in last 5 minutes: 4 views

DOWNLOAD PAIDNAIJA MOBILE APP (APK)