Siljnaja Slabaja Zhenshina 2019 Rip GeneralFilm Torrent

Информация о фильме

Оригинальное название: Сильная слабая женщина

NOTE: Our website contains popup ads. You may need to click the DOWNLOAD LINK twice or three times before you can download


Год выпуска: 2019

Жанр: Мелодрама

Выпущено: Россия, «Киностудия КИТ»

Режиссер: Екатерина Двигубская

В ролях: Александра Власова, Сергей Перегудов, Дмитрий Власкин, Александр Константинов, Ольга Кабо, Владимир Гостюхин, Наталья Аринбасарова, Зоя Антонова, Татьяна Яхина, Святослав Астрамович, Юлианна Михневич, Андрей Карако, Андрей Шарков, Артём Курень, Андрей Сенькин (II), Евгения Осипова, Дмитрий Егоров (III), Андрей Давидюк, Игорь Сигов, Олег Ткачёв, Тамара Миронова, Елена Побегаева, Елена Барсукова (II), Наталья Холодович, Анна Ницкая, Виктор Васильев (II), Василий Козлов (II), Алексей Шутов, Ольга Дятловская, Дмитрий Есеневич, Александр Одинец

О фильме: Весна 1989 года, провинциальный город Казимов. Нина Голубева заканчивает школу с медалью и мечтает стать модельером. Первая серьезная влюбленность оборачивается для неё беременностью и одиночеством. Нина переезжает в неприветливую Москву в трудное для страны время.Некогда наивная и романтичная, теперь Нина полагается только на себя и не может себе позволить быть слабой. В её жизни ещё будут признание и успех.

Качество: HDTVRip

Видео: XviD build 73, 720×400 (16:9), 25.000 fps, ~ 1250 Kbps (~ 0.175 bit/pixel)

Аудио: 48.0 kHz, AC3, 2/0 ch, 192 kbps

Продолжительность: 14 х ~ 00:52:00

Перевод: Не требуется [Русский]

Cубтитры: нет

СкриншотыMediaInfoGeneral

Complete name : D:RazdachiSiljnaja.Slabaja.Zhenshina.2019.HDTVRip.GeneralFilmSiljnaja.Slabaja.Zhenshina.e01.avi

Format : AVI

Format/Info : Audio Video Interleave

File size : 557 MiB

Duration : 52 min 52 s

Overall bit rate : 1 474 kb/s

Writing application : VirtualDubMod 1.5.10.3 | www.virtualdub-fr.org || (build 2550/release)

Writing library : VirtualDubMod build 2550/release

Video

ID : 0

Format : MPEG-4 Visual

Format profile : Advanced [email protected]

Format settings : BVOP1 / Custom Matrix

Format settings, BVOP : 1

Format settings, QPel : No

Format settings, GMC : No warppoints

Format settings, Matrix : Custom

Codec ID : XVID

Codec ID/Hint : XviD

Duration : 52 min 52 s

Bit rate : 1 272 kb/s

Width : 720 pixels

Height : 400 pixels

Display aspect ratio : 16:9

Frame rate : 25.000 FPS

Color space : YUV

Chroma subsampling : 4:2:0

Bit depth : 8 bits

Scan type : Progressive

Compression mode : Lossy

Bits/(Pixel*Frame) : 0.177

Stream size : 481 MiB (86%)

Writing library : XviD 73

Audio

ID : 1

Format : AC-3

Format/Info : Audio Coding 3

Commercial name : Dolby Digital

Codec ID : 2000

Duration : 52 min 52 s

Bit rate mode : Constant

Bit rate : 192 kb/s

Channel(s) : 2 channels

Channel layout : L R

Sampling rate : 48.0 kHz

Frame rate : 31.250 FPS (1536 SPF)

Bit depth : 16 bits

Compression mode : Lossy

Stream size : 72.6 MiB (13%)

Alignment : Split accross interleaves

Interleave, duration : 40 ms (1.00 video frame)

Interleave, preload duratio : 500 ms

Service kind : Complete Main

Релиз от:

Author:

Movie Source: https://www.torrentfunk2.com/torrent/23905226/siljnaja-slabaja-zhenshina-2019-rip-generalfilm.html

All Subtitles can be download on Subscene.com or addic7ed.pro

PUBLISH MOVIE ON PAIDNAIJA [FREE!]

Can't Download? REPORT BROKEN LINKS

HOW TO DOWNLOAD ON PAIDNAIJA

Recent Movie Updates [Nollywood, IMDB, NetFlix, Amazon]

Post views in last 5 minutes: 0 views

DOWNLOAD PAIDNAIJA MOBILE APP (APK)