Will Vinton Claymation of Horrors Torrent

Happy Halloween!

NOTE: Our website contains popup ads. You may need to click the DOWNLOAD LINK twice or three times before you can download


I present to you this rarity; Will Vinton’s Claymation Comedy of Horror’s is created by the man who made the California Raisins cartoon and subsequently made many iconic claymation cartoons.

This is a short cartoon running only 20 minutes long but so very fun! I too wish this had a few seasons worth of content. This is ripped from an old VHS.

http://www.torrentfunk2.com/ Media NfoGeneral

Unique ID                                : 219956267707400777566779168236570460239 (0xA57A09473E3D83F29A6C12FFDBC4C04F)

Complete name                            : G:DownloadsCute Little Buggers-zombiRGCute Little Buggers-zombiRG.mkv

Format                                   : Matroska

Format version                           : Version 2

File size                                : 1.61 GiB

Duration                                 : 1h 48mn

Overall bit rate                         : 2 130 Kbps

Movie name                               : Cute Little Buggers.HH

Encoded date                             : UTC 2019-01-17 01:13:07

Writing application                      : DVDFab

Writing library                          : libebml v0.7.8 + libmatroska v0.8.1

Video

ID                                       : 1

Format                                   : AVC

Format/Info                              : Advanced Video Codec

Format profile                           : [email protected]

Format settings, CABAC                   : Yes

Format settings, ReFrames                : 2 frames

Codec ID                                 : V_MPEG4/ISO/AVC

Duration                                 : 1h 48mn

Bit rate                                 : 1 255 Kbps

Width                                    : 720 pixels

Height                                   : 300 pixels

Display aspect ratio                     : 2.40:1

Frame rate mode                          : Constant

Frame rate                               : 23.976 fps

Color space                              : YUV

Chroma subsampling                       : 4:2:0

Bit depth                                : 8 bits

Scan type                                : Progressive

Bits/(Pixel*Frame)                       : 0.242

Stream size                              : 973 MiB (59%)

Writing library                          : x264 core

Default                                  : Yes

Forced                                   : No

Color range                              : Limited

Color primaries                          : BT.601 NTSC

Transfer characteristics                 : BT.709

Matrix coefficients                      : BT.601

Audio #1

ID                                       : 2

Format                                   : AC-3

Format/Info                              : Audio Coding 3

Mode extension                           : CM (complete main)

Format settings, Endianness              : Big

Codec ID                                 : A_AC3

Duration                                 : 1h 48mn

Bit rate mode                            : Constant

Bit rate                                 : 448 Kbps

Channel(s)                               : 6 channels

Channel positions                        : Front: L C R, Side: L R, LFE

Sampling rate                            : 48.0 KHz

Compression mode                         : Lossy

Stream size                              : 347 MiB (21%)

Language                                 : English

Default                                  : Yes

Forced                                   : No

Audio #2

ID                                       : 3

Format                                   : AC-3

Format/Info                              : Audio Coding 3

Mode extension                           : CM (complete main)

Format settings, Endianness              : Big

Codec ID                                 : A_AC3

Duration                                 : 1h 48mn

Bit rate mode                            : Constant

Bit rate                                 : 192 Kbps

Channel(s)                               : 2 channels

Channel positions                        : Front: L R

Sampling rate                            : 48.0 KHz

Compression mode                         : Lossy

Stream size                              : 149 MiB (9%)

Language                                 : English

Default                                  : No

Forced                                   : No

Audio #3

ID                                       : 4

Format                                   : AC-3

Format/Info                              : Audio Coding 3

Mode extension                           : CM (complete main)

Format settings, Endianness              : Big

Codec ID                                 : A_AC3

Duration                                 : 1h 48mn

Bit rate mode                            : Constant

Bit rate                                 : 192 Kbps

Channel(s)                               : 2 channels

Channel positions                        : Front: L R

Sampling rate                            : 48.0 KHz

Compression mode                         : Lossy

Stream size                              : 149 MiB (9%)

Language                                 : English

Default                                  : No

Forced                                   : No

Menu

00:00:00.000                             : en:(01)00:00:00:000

00:11:14.000                             : en:(02)00:11:14:000

00:18:26.000                             : en:(03)00:18:26:000

00:29:18.000                             : en:(04)00:29:18:000

00:41:40.000                             : en:(05)00:41:40:000

00:51:28.000                             : en:(06)00:51:28:000

01:12:26.000                             : en:(07)01:12:26:000

01:32:48.000                             : en:(08)01:32:48:000

01:43:35.000                             : en:(09)01:43:35:000

01:48:11.000                             : en:(10)01:48:11:000

Author:

Movie Source: https://www.torrentfunk2.com/torrent/23964862/will-vinton-claymation-of-horrors.html

All Subtitles can be download on Subscene.com or addic7ed.pro

PUBLISH MOVIE ON PAIDNAIJA [FREE!]

Can't Download? REPORT BROKEN LINKS

HOW TO DOWNLOAD ON PAIDNAIJA

Recent Movie Updates [Nollywood, IMDB, NetFlix, Amazon]

Post views in last 5 minutes: 0 views

DOWNLOAD PAIDNAIJA MOBILE APP (APK)